Mission Impossible Dead Reckoning Part One DVDRip Movie Download Torrent

Mission Impossible Dead Reckoning Part One

Torrent downloaded from

Generally

Full Title: Mission: Impossible – Fallout – Part 1 (2023) 1080p HD-TS – AVC – AAC-=Team TPB=

Format: MPEG-4

Profile format: Basic Media

Codec ID: isom (isom/iso2/avc1/mp41)

File size: GiB

Duration: 2 36 min

Total transfer speed: 1683 kb/s

Number of frames per second: FPS

Write an application:

Video

ID: 1

Format: AVC

Format/Info: Advanced Video Codec

Profile format:

Format settings: CABAC / 8 reference frames

Format settings, CABAC: Yes

Format settings, reference frames: 8 frames

Codec ID: avc1

Codec ID/Info: Advanced Video Encoding

Duration: 2 36 min

Bit rate: 1554 kb/s

Maximum transfer speed: 1642 kb/s

Width: 1920 pixels

Height: 862 pixels

Screen aspect ratio:

Frame rate mode: Constant

Frames per second: (24000/1001) FPS

Color space: YUV

Chromatic subsampling: 4:2:0

Bit depth: 8 bits

Scan type: Progressive

Bits/(pixels*frame):

Stream size: GiB (92%)

Recording library: x264 core 164 r3095 baee400

Encoding settings: cabac=1 / ref=8 / deblock=1:0:0 / parse=0x3:0x133 / me=umh / subme=9 / psy=1 / psy_rd= / mix_ref=1 / me_range=16 / chroma_me=1 / grid=2 / 8x8dct=1 /chroma_off = thread=1 / chrome_off=1 / chrome_off=front_ threads = 1 / sliced_threads = 0 / nr=0 / decimate=1 / interlaced=0 / bluray_compat=0 / constrained_intra=0 / bframes=0 / weightp=2 / keyint=250 / keyint_min=rc_0 / intrakarecut=4 rf / mbtreet=1 rf / c=4 rf / mbtreet=4 rf / mbtreet = 4 rf / mbtreet = 4 rf / mbtreet = 10p 4 / vbv_maxrate=1642 / vbv _bufsize=4105 / crf_max= / nal_hrd=none / filler=0 / ip_1tio= / water

Label date: 2023-07-12 10:51:27 UTC

Color range: limited

Primary colors:

Transfer features:

Matrix coefficients:

Codec configuration framework: avcC

The noise

ID: 2

Format: AAC LC

Format/Info: Advanced low complexity audio codec

Codec ID: mp4a-40-2

Duration: 2 36 min

Bit rate mode: Constant

Bit rate: 125 kb/s

Channels: 2 channels

Channel layout: L R

Sampling frequency: kHz

Frames per second: FPS (1024 SPF)

Compression mode: Lossy

Stream size: 140 MiB (7%)

Default: Yes

Alternative group: 1

Label date: 2023-07-12 10:51:27 UTC

Screenshots:-

  • Mission Impossible Dead Reckoning Part One download torrent
  • Mission Impossible Dead Reckoning Part One DVDRip.AVC English KAT full movie torrent
  • Mission Impossible Dead Reckoning Part One DVDScr uTorrent Full Torrent

Get uTorrent Torrent rating 16 2

Leave a Comment

Your email address will not be published. Required fields are marked *