The Gentlemen 2019 Longfoot Download Full Movie Torrent

The Gentlemen 2019

Directed by Guy Ritchie

Authors: Guy Ritchie (screenwriter), Guy Ritchie (songwriter)

Celebrities: Matthew McConaughey, Charlie Hunnam, Michelle Dockery

History / History:

An American expat tries to sell his highly lucrative marijuana empire in London by causing conspiracies, conspiracies, bribery and blackmail to steal his domain.

General

Full first and last name:

Format: AVI

Format / Info: Audio Video Interleave

File size: 938 MiB

Duration: 1 53 min

Total bit rate: 1154 kbps

Subtitle: (HI)

Video

ID: 0

Format: MPEG-4 Visual

Profile formatting: advanced

Format settings, BVOP: 2

Format settings, QPel: No.

Format settings, GMC: no tapping points

Format settings, matrix: Standard ()

Codec ID: XVID

Codec ID / Tip: XviD

Duration: 1 53 min

Bit rate: 1013 kbps

Width: 720 pixels

Height: 304 pixels

Screen aspect ratio: 1

Frame rate: (24,000 / 1001) frames per second

Color space: YUV

Chrome counterfeit: 4: 2: 0

Bit depth: 8 bits

Scan type: Progressive

Compression mode: Lost

Bit / (Pixel * Frame):

Stream size: 824 MiB (88%)

Stationery collection: XviD 64

Helicopter

ID: 1

Format: MPEG audio

Format version: Version 1

Format profile: level 3

Codec: 55

Codec ID / Note: MP3

Duration: 1 53 min

Bit rate mode: continuous

Bit rate: 128 kbps

Channels: 2 channels

Sampling frequency: kHz

Compression mode: Lost

Stream size: 104 MiB (11%)

Alignment: Aligned with intermediate lines

Interlacing, duration: 24 ms (video frame)

Screenshots:

Please sow as long as possible

Or at least 1: 1

Have fun with your Peepsi

  • The Gentlemen 2019 web-dl movie torrent download
  • The Gentlemen 2019 DVDRip.AVC Movie Torrent
  • The Gentlemen 2019 download full movie torrent

Get uTorrent Torrent rating 36 3

Leave a Comment

Your email address will not be published. Required fields are marked *